<?xml version="1.0" standalone="no"?>
<!DOCTYPE svg PUBLIC "-//W3C//DTD SVG 1.1//EN" "http://www.w3.org/Graphics/SVG/1.1/DTD/svg11.dtd" >
<svg xmlns="http://www.w3.org/2000/svg">
<metadata>Generated by IcoMoon</metadata>
<defs>
<font id="icomoon" horiz-adv-x="1024">
<font-face units-per-em="1024" ascent="960" descent="-64" />
<missing-glyph horiz-adv-x="1024" />
<glyph unicode="&#x20;" horiz-adv-x="512" d="" />
<glyph unicode="&#xe900;" glyph-name="unlocked" d="M733.6 560.8h-389.6v147.2c8 92.8 89.6 161.6 182.4 153.6 81.6-7.2 147.2-72 153.6-153.6 0-27.2 21.6-48.8 48.8-48.8s48.8 21.6 48.8 48.8c-10.4 146.4-136.8 257.6-283.2 247.2-132.8-8.8-239.2-114.4-248-247.2v-154.4c-53.6-18.4-89.6-69.6-89.6-126.4v-353.6c0-73.6 60-133.6 133.6-133.6h443.2c73.6 0 133.6 60 133.6 133.6v353.6c0 73.6-60 133.6-133.6 133.6zM770.4 73.6c0-20-16-36.8-36.8-36.8h-442.4c-20 0-36.8 16-36.8 36.8v353.6c0 20 16 36.8 36.8 36.8h442.4c20 0 36.8-16 36.8-36.8v-353.6z" />
<glyph unicode="&#xe901;" glyph-name="quiz" d="M794.4 864.8c24 0 44.8-20.8 44.8-44.8v-745.6c0-24-20.8-44.8-44.8-44.8h-530.4c-24 0-44.8 20.8-44.8 44.8v745.6c0 24 20.8 44.8 44.8 44.8h530.4zM794.4 955.2h-530.4c-74.4 0-135.2-60.8-135.2-135.2v-745.6c0-74.4 60.8-135.2 135.2-135.2h530.4c74.4 0 135.2 60.8 135.2 135.2v745.6c0 74.4-60.8 135.2-135.2 135.2v0zM526.4 583.2l-28.8-80h-79.2l61.6 131.2-60 127.2h80l27.2-74.4h0.8l27.2 74.4h80l-60-127.2 62.4-130.4h-79.2l-28.8 80h-3.2zM676.8 385.6c-7.2 0-14.4-3.2-19.2-8.8l-144-142.4-76.8 60.8c-12 10.4-29.6 8.8-40-3.2s-8.8-29.6 3.2-40c0.8-0.8 0.8-0.8 1.6-1.6l96.8-76.8c11.2-8.8 27.2-8 37.6 2.4l160.8 160.8c11.2 11.2 11.2 28.8 0.8 40-5.6 6.4-12.8 9.6-20.8 8.8v0z" />
<glyph unicode="&#xe902;" glyph-name="materials" d="M777.6 956h-531.2c-74.4 0-134.4-60.8-134.4-135.2v-745.6c0-74.4 60.8-135.2 135.2-135.2h530.4c74.4 0 135.2 60.8 135.2 135.2v745.6c-0.8 74.4-60.8 135.2-135.2 135.2zM822.4 75.2c0-24-20.8-44.8-44.8-44.8h-531.2c-24 0-44.8 20.8-44.8 44.8v745.6c0 24 20.8 44.8 44.8 44.8h45.6v-356.8l97.6 97.6c8.8 8.8 23.2 8.8 32 0l97.6-97.6v356.8h258.4c24 0 44.8-20.8 44.8-44.8v-745.6z" />
<glyph unicode="&#xe903;" glyph-name="download" d="M692 910.4c37.6-19.2 156-136.8 175.2-174.4-2.4-10.4-11.2-18.4-22.4-18.4h-148c-12 0-22.4 10.4-22.4 22.4v148.8c0 10.4 7.2 20 17.6 21.6zM696.8 956c-36.8 0-67.2-30.4-67.2-67.2v-148c0-36.8 30.4-67.2 67.2-67.2h148c36.8 0 67.2 30.4 67.2 67.2s-178.4 215.2-215.2 215.2v0zM528 72l157.6 157.6c4 4 6.4 10.4 6.4 16 0 3.2-0.8 5.6-1.6 8.8-3.2 8-12 13.6-20.8 13.6h-112.8v495.2c0 12.8-10.4 22.4-22.4 22.4h-44.8c-12.8 0-22.4-10.4-22.4-22.4v-495.2h-112.8c-8.8 0-17.6-5.6-20.8-13.6-0.8-2.4-1.6-5.6-1.6-8.8 0-5.6 2.4-12 6.4-16l157.6-157.6c8.8-8.8 23.2-8.8 32 0zM844.8 672.8h-22.4v-597.6c0-24-20.8-44.8-44.8-44.8h-531.2c-24 0-44.8 20.8-44.8 44.8v745.6c0 24 20.8 44.8 44.8 44.8h382.4v23.2c0 36.8 30.4 67.2 67.2 67.2v0h-449.6c-74.4 0-134.4-60.8-134.4-135.2v-745.6c0-74.4 60.8-135.2 135.2-135.2h530.4c74.4 0 135.2 60.8 135.2 135.2v664.8c-0.8-36.8-30.4-67.2-68-67.2z" />
<glyph unicode="&#xe904;" glyph-name="course-outline" d="M786.4 886.4c26.4 0 69.6-6.4 69.6-46.4v-3.2c0-40.8-44-46.4-69.6-46.4h-548.8c-26.4 0-69.6 6.4-69.6 46.4v3.2c0 40.8 44 46.4 69.6 46.4h548.8zM786.4 956h-548.8c-76.8 0-140-39.2-140-116.8v-3.2c0-76.8 63.2-116.8 140-116.8h549.6c76.8 0 140 39.2 140 116.8v3.2c-0.8 77.6-64 116.8-140.8 116.8v0zM786.4 626.4c26.4 0 69.6-6.4 69.6-46.4v-4c0-40.8-44-46.4-69.6-46.4h-548.8c-26.4 0-69.6 6.4-69.6 46.4v3.2c0 40.8 44 46.4 69.6 46.4h548.8zM786.4 696h-548.8c-76.8 0-140-39.2-140-116.8v-3.2c0-76.8 63.2-116.8 140-116.8h549.6c76.8 0 140 39.2 140 116.8v3.2c-0.8 77.6-64 116.8-140.8 116.8v0zM786.4 366.4c26.4 0 69.6-6.4 69.6-46.4v-3.2c0-40.8-44-46.4-69.6-46.4h-548.8c-26.4 0-69.6 6.4-69.6 46.4v3.2c0 40.8 44 46.4 69.6 46.4h548.8zM786.4 436h-548.8c-76.8 0-140-39.2-140-116.8v-3.2c0-76.8 63.2-116.8 140-116.8h549.6c76.8 0 140 39.2 140 116.8v4c-0.8 76.8-64 116-140.8 116v0zM786.4 106.4c26.4 0 69.6-6.4 69.6-46.4v-3.2c0-40.8-44-46.4-69.6-46.4h-548.8c-26.4 0-69.6 6.4-69.6 46.4v3.2c0 40.8 44 46.4 69.6 46.4h548.8zM786.4 176h-548.8c-76.8 0-140-39.2-140-116.8v-3.2c0-76.8 63.2-116.8 140-116.8h549.6c76.8 0 140 39.2 140 116.8v3.2c-0.8 77.6-64 116.8-140.8 116.8v0z" />
<glyph unicode="&#xe905;" glyph-name="content" d="M791.2 865.6c24 0 44.8-20.8 44.8-44.8v-745.6c0-24-20.8-44.8-44.8-44.8h-531.2c-24 0-44.8 20.8-44.8 44.8v745.6c0 24 20.8 44.8 44.8 44.8h531.2zM791.2 956h-531.2c-74.4 0-135.2-60.8-135.2-135.2v-745.6c0-74.4 60.8-135.2 135.2-135.2h530.4c74.4 0 135.2 60.8 135.2 135.2v745.6c0.8 74.4-60 135.2-134.4 135.2v0zM332.8 747.2h382.4v-40h-382.4v40zM336 604.8h383.2v-40h-383.2v40zM332.8 466.4h382.4v-40h-382.4v40zM332.8 327.2h382.4v-40h-382.4v40zM332.8 188.8h382.4v-40h-382.4v40z" />
<glyph unicode="&#xe906;" glyph-name="complete" d="M926.4 799.2c-24-0.8-46.4-10.4-62.4-27.2l-461.6-462.4-248 196c-38.4 32.8-95.2 28-128-10.4s-28-95.2 10.4-128c1.6-1.6 3.2-2.4 4.8-4l311.2-246.4c36-28.8 88-25.6 120.8 7.2l518.4 518.4c36 35.2 36.8 92.8 2.4 128.8-17.6 18.4-42.4 28.8-68 28v0z" />
<glyph unicode="&#xe907;" glyph-name="clock" d="M512-60c-280 0-508 228-508 508s228 508 508 508c280 0 508-228 508-508s-228-508-508-508zM512 868.8c-232 0-420.8-188.8-420.8-420.8s188.8-420.8 420.8-420.8 420.8 188.8 420.8 420.8-188.8 420.8-420.8 420.8zM500 386.4h-53.6c-8.8 0-16 7.2-16 16v308c0 8.8 7.2 16 16 16h53.6c8.8 0 16-7.2 16-16v-308.8c-0.8-8-8-15.2-16-15.2zM435.2 414.4l38.4 38.4c6.4 6.4 16 6.4 22.4 0l218.4-218.4c6.4-6.4 6.4-16 0-22.4l-38.4-38.4c-6.4-6.4-16-6.4-22.4 0l-218.4 219.2c-6.4 5.6-6.4 16 0 21.6z" />
<glyph unicode="&#xe908;" glyph-name="certificate" d="M924 9.6h-824c-52.8 0-96 43.2-96 96v684.8c0 52.8 43.2 96 96 96h824c52.8 0 96-43.2 96-96v-684.8c0-52.8-43.2-96-96-96zM100 809.6c-10.4 0-19.2-8.8-19.2-19.2v-684.8c0-10.4 8.8-19.2 19.2-19.2h824c10.4 0 19.2 8.8 19.2 19.2v684.8c0 10.4-8.8 19.2-19.2 19.2h-824zM475.2 704.8h332v-38.4h-332v38.4zM475.2 600h332v-38.4h-332v38.4zM207.2 480h600.8v-38.4h-600.8v38.4zM207.2 375.2h600.8v-38.4h-600.8v38.4zM207.2 209.6h217.6v-38.4h-217.6v38.4zM590.4 209.6h217.6v-38.4h-217.6v38.4zM316 720.8l24.8-51.2 56-8-40.8-39.2 9.6-56-49.6 26.4-50.4-26.4 9.6 56-40.8 39.2 56 8z" />
<glyph unicode="&#xe909;" glyph-name="calendar" d="M820.8 852.8h-617.6c-66.4 0-121.6-54.4-121.6-121.6v-669.6c0-66.4 54.4-121.6 121.6-121.6h618.4c66.4 0 121.6 54.4 121.6 121.6v669.6c-0.8 66.4-55.2 121.6-122.4 121.6zM820.8 20.8h-617.6c-21.6 0-40.8 18.4-40.8 40.8v510.4h699.2v-511.2c0-21.6-18.4-40-40.8-40zM329.6 950.4h-80c-4.8 0-8-3.2-8-8v-191.2c0-4 3.2-8 8-8h80c4.8 0 8 4 8 8v191.2c0 4-4 8-8 8zM795.2 956h-80c-4.8 0-8-3.2-8-8v-191.2c0-4.8 3.2-8 8-8h80c4.8 0 8 3.2 8 8v191.2c0 4.8-4 8-8 8zM596 296.8h174.4c4.8 0 8-3.2 8-8v-174.4c0-4.8-3.2-8-8-8h-174.4c-4 0-8 3.2-8 8v174.4c0 4 3.2 8 8 8z" />
<glyph unicode="&#xe90a;" glyph-name="assignment" d="M316.8 749.6h382.4v-44.8h-382.4v44.8zM320.8 607.2h382.4v-44.8h-382.4v44.8zM316.8 468.8h382.4v-44.8h-382.4v44.8zM316.8 329.6h382.4v-44.8h-382.4v44.8zM316.8 191.2h382.4v-44.8h-382.4v44.8zM820.8 727.2v-652c0-24-20.8-44.8-44.8-44.8h-531.2c-24 0-44.8 20.8-44.8 44.8v745.6c0 24 20.8 44.8 44.8 44.8h449.6v90.4h-449.6c-74.4 0-135.2-60.8-135.2-135.2v-745.6c0-74.4 60.8-135.2 135.2-135.2h530.4c74.4 0 135.2 60.8 135.2 135.2v664.8l-89.6-12.8zM843.2 672.8h-148.8c-36.8 0-67.2 30.4-67.2 67.2v148.8c0 36.8 30.4 67.2 67.2 67.2v0c36.8 0 216-178.4 216-216v0c0-36.8-30.4-67.2-67.2-67.2zM690.4 910.4c37.6-19.2 156-136.8 174.4-174.4-2.4-10.4-11.2-18.4-22.4-18.4h-148c-12 0-22.4 10.4-22.4 22.4v148.8c0 10.4 8 20 18.4 21.6zM694.4 956c-36.8 0-67.2-30.4-67.2-67.2v-148c0-36.8 30.4-67.2 67.2-67.2h148c36.8 0 67.2 30.4 67.2 67.2s-177.6 215.2-215.2 215.2v0z" />
<glyph unicode="&#xe90b;" glyph-name="remove" d="M668.672 346.624c18.432-18.432 18.432-48.128 0-65.536-9.216-9.216-21.504-14.336-32.768-14.336s-23.552 5.12-32.768 14.336l-96.256 96.256-96.256-96.256c-9.216-9.216-21.504-14.336-32.768-14.336s-23.552 5.12-32.768 14.336c-18.432 18.432-18.432 48.128 0 65.536l96.256 96.256-96.256 96.256c-18.432 18.432-18.432 48.128 0 65.536 18.432 18.432 48.128 18.432 65.536 0l96.256-96.256 96.256 96.256c18.432 18.432 48.128 18.432 65.536 0 18.432-18.432 18.432-48.128 0-65.536l-96.256-96.256 96.256-96.256zM911.36 442.88c0-222.208-182.272-404.48-404.48-404.48s-404.48 182.272-404.48 404.48 182.272 404.48 404.48 404.48 404.48-182.272 404.48-404.48zM818.176 442.88c0 171.008-140.288 311.296-311.296 311.296s-311.296-140.288-311.296-311.296 140.288-311.296 311.296-311.296 311.296 140.288 311.296 311.296z" />
<glyph unicode="&#xe90c;" glyph-name="login" d="M509.952 879.104c97.28 0 176.128-78.848 176.128-176.128s-78.848-176.128-176.128-176.128-176.128 78.848-176.128 176.128c0 97.28 78.848 176.128 176.128 176.128zM509.952 940.544c-131.072 0-237.568-106.496-237.568-237.568s106.496-237.568 237.568-237.568 237.568 106.496 237.568 237.568c-1.024 131.072-106.496 237.568-237.568 237.568v0zM283.648 395.776c63.488-52.224 143.36-80.896 226.304-80.896s162.816 28.672 226.304 80.896c92.16-78.848 146.432-193.536 146.432-316.416 0-31.744-25.6-57.344-57.344-57.344h-632.832c-31.744 0-57.344 25.6-57.344 57.344 0 122.88 55.296 237.568 148.48 316.416zM287.744 475.648c-128-84.992-214.016-230.4-214.016-396.288 0-65.536 53.248-118.784 118.784-118.784h632.832c65.536 0 118.784 53.248 118.784 118.784 0 165.888-84.992 311.296-214.016 396.288-54.272-61.44-133.12-99.328-221.184-99.328-87.040 0-165.888 37.888-221.184 99.328v0z" />
<glyph unicode="&#xe90d;" glyph-name="alert" d="M517.6-60c-280 0-508 228-508 508s228 508 508 508 508-228 508-508-228-508-508-508zM517.6 868.8c-232 0-420.8-188.8-420.8-420.8s188.8-420.8 420.8-420.8 420.8 188.8 420.8 420.8-188.8 420.8-420.8 420.8zM458.4 252.8c0 19.2 4.8 33.6 15.2 43.2s24.8 14.4 44.8 14.4c18.4 0 33.6-4.8 44-15.2 10.4-9.6 15.2-24 15.2-43.2 0-17.6-5.6-32-16-42.4s-24.8-15.2-43.2-15.2c-19.2 0-33.6 4.8-44 15.2-11.2 10.4-16 24.8-16 43.2zM560 368.8h-83.2l-17.6 332h117.6l-16.8-332z" />
<glyph unicode="&#xe912;" glyph-name="arrow-up" d="M996.8 289.6c30.4-30.4 30.4-82.4 0-112.8-14.4-16.8-35.2-23.2-56-23.2s-40 7.2-56 23.2l-372 371.2-372.8-371.2c-30.4-30.4-82.4-30.4-112.8 0s-30.4 82.4 0 112.8l429.6 429.6c14.4 14.4 35.2 23.2 56 23.2s42.4-9.6 56-23.2l428-429.6z" />
<glyph unicode="&#xe913;" glyph-name="arrow-right" d="M353.6-36.8c-30.4-30.4-82.4-30.4-112.8 0-16.8 14.4-23.2 35.2-23.2 56s7.2 40 23.2 56l371.2 371.2-371.2 373.6c-30.4 30.4-30.4 82.4 0 112.8s82.4 30.4 112.8 0l429.6-429.6c14.4-14.4 23.2-35.2 23.2-56s-9.6-42.4-23.2-56l-429.6-428z" />
<glyph unicode="&#xe914;" glyph-name="arrow-left" d="M670.4-36.8c30.4-30.4 82.4-30.4 112.8 0 16.8 14.4 23.2 35.2 23.2 56s-7.2 40-23.2 56l-371.2 372 371.2 373.6c30.4 30.4 30.4 82.4 0 112.8s-82.4 30.4-112.8 0l-429.6-430.4c-14.4-14.4-23.2-35.2-23.2-56s9.6-42.4 23.2-56l429.6-428z" />
<glyph unicode="&#xe915;" glyph-name="arrow-down" d="M996.8 606.4c30.4 30.4 30.4 82.4 0 112.8-14.4 16.8-35.2 23.2-56 23.2s-40-7.2-56-23.2l-372-371.2-372.8 371.2c-30.4 30.4-82.4 30.4-112.8 0s-30.4-82.4 0-112.8l429.6-429.6c14.4-14.4 35.2-23.2 56-23.2s42.4 9.6 56 23.2l428 429.6z" />
<glyph unicode="&#xe916;" glyph-name="search1" d="M954.368 105.984l-224.256 225.28c95.232 143.36 76.8 333.824-45.056 455.68-68.608 68.608-159.744 106.496-257.024 106.496s-187.392-37.888-256-105.472c-140.288-141.312-140.288-370.688 0-512 121.856-121.856 312.32-140.288 455.68-46.080l225.28-225.28c10.24-10.24 28.672-10.24 38.912 0l62.464 62.464c12.288 11.264 12.288 28.672 0 38.912zM602.112 357.888c-95.232-95.232-250.88-95.232-347.136 0-95.232 95.232-95.232 250.88 0 347.136 95.232 95.232 250.88 95.232 347.136 0 95.232-95.232 95.232-251.904 0-347.136z" />
<glyph unicode="&#xe917;" glyph-name="comments" d="M710.656 832h-393.216c-99.328 0-180.224-80.896-180.224-180.224v-233.472c0-99.328 80.896-180.224 180.224-180.224h56.32c-1.024-31.744-6.144-74.752-23.552-118.784-8.192-20.48-2.048-44.032 15.36-57.344 10.24-8.192 21.504-12.288 33.792-12.288 8.192 0 17.408 2.048 25.6 6.144 84.992 48.128 156.672 132.096 195.584 183.296h91.136c99.328 0 180.224 80.896 180.224 180.224v232.448c0 99.328-80.896 180.224-181.248 180.224zM849.92 417.28c0-75.776-62.464-138.24-138.24-138.24h-102.4c-6.144 0-13.312-3.072-16.384-8.192-34.816-47.104-105.472-133.12-189.44-180.224-5.12-2.048-9.216-1.024-10.24 1.024-2.048 2.048-5.12 5.12-3.072 11.264 23.552 62.464 27.648 118.784 25.6 156.672-1.024 11.264-10.24 19.456-20.48 19.456h-77.824c-75.776 0-138.24 62.464-138.24 138.24v234.496c0 75.776 62.464 138.24 138.24 138.24h394.24c75.776 0 138.24-62.464 138.24-138.24 0 0 0-234.496 0-234.496zM672.768 637.44h-317.44c-11.264 0-20.48-9.216-20.48-20.48s9.216-20.48 20.48-20.48h316.416c11.264 0 20.48 9.216 20.48 20.48s-8.192 20.48-19.456 20.48zM672.768 478.72h-317.44c-11.264 0-20.48-9.216-20.48-20.48s9.216-20.48 20.48-20.48h316.416c11.264 0 20.48 9.216 20.48 20.48s-8.192 20.48-19.456 20.48z" />
</font>
</defs>
</svg>
